<?xml version="1.0" standalone="no"?>
<!DOCTYPE svg PUBLIC "-//W3C//DTD SVG 1.1//EN" "http://www.w3.org/Graphics/SVG/1.1/DTD/svg11.dtd">
<svg xmlns="http://www.w3.org/2000/svg">
<metadata>Generated by Fontastic.me</metadata>
<defs>
<font id="tereza" horiz-adv-x="512">
<font-face font-family="tereza" units-per-em="512" ascent="480" descent="-32"/>
<missing-glyph horiz-adv-x="512" />

<glyph glyph-name="comment" unicode="&#97;" d="M453 425c-1 9-8 16-17 16l-360 0 0 0c-9 0-16-7-17-16l0 0 0-288 0 0c2-8 9-14 17-14l0 0 59 0 0-35c0-9 8-17 17-17 6 0 11 3 14 8l45 44 225 0c8 0 15 6 17 14l0 0 0 288z"/>
<glyph glyph-name="refresh" unicode="&#98;" d="M117 271c10 57 68 119 138 119 41 0 77-18 102-47l34 23c-33 39-83 65-137 65-91 0-166-63-177-152l-77 15 76-112 111 76z m319 59l-111-76 70-13c-10-57-69-119-138-119-41 0-77 18-102 47l-34-23c33-39 83-65 137-65 91 0 166 63 177 152l77-15z"/>
<glyph glyph-name="spinner" unicode="&#99;" d="M174 128c0-11-4-21-12-29-9-8-18-12-29-12-12 0-22 4-30 12-8 8-12 18-12 29 0 11 4 21 12 29 8 8 18 12 30 12 11 0 20-4 29-12 8-8 12-18 12-29z m123-55c0-10-3-19-11-26-7-7-15-10-25-10-11 0-19 3-26 10-7 7-11 16-11 26 0 10 4 19 11 26 7 7 15 11 26 11 10 0 18-4 25-11 8-7 11-16 11-26z m-174 183c0-13-4-23-13-32-9-9-20-14-32-14-13 0-24 5-33 14-9 9-13 19-13 32 0 13 4 23 13 32 9 9 20 14 33 14 12 0 23-5 32-14 9-9 13-19 13-32z m298-128c0-9-4-16-10-23-6-6-14-9-22-9-9 0-17 3-23 9-6 7-9 14-9 23 0 9 3 16 9 23 6 6 14 9 23 9 8 0 16-3 22-9 6-7 10-14 10-23z m-238 256c0-14-5-26-15-36-10-9-22-14-35-14-14 0-26 5-36 14-10 10-15 22-15 36 0 14 5 26 15 36 10 9 22 14 36 14 13 0 25-5 35-14 10-10 15-22 15-36z m132 55c0-15-5-28-16-39-10-11-23-16-38-16-16 0-29 5-39 16-11 11-16 24-16 39 0 15 5 28 16 39 10 10 23 16 39 16 15 0 28-6 38-16 11-11 16-24 16-39z m156-183c0-8-3-14-8-19-5-6-12-8-20-8-7 0-14 2-19 8-5 5-8 11-8 19 0 8 3 14 8 19 5 6 12 8 19 8 8 0 15-2 20-8 5-5 8-11 8-19z m-60 128c0-6-2-12-6-16-5-5-10-7-16-7-7 0-12 2-17 7-4 4-6 10-6 16 0 6 2 12 6 16 5 5 10 7 17 7 6 0 11-2 16-7 4-4 6-10 6-16z"/>
<glyph glyph-name="more-option" unicode="&#100;" d="M192 192l0 128 128 0 0-128z m0 192l0 128 128 0 0-128z m0-384l0 128 128 0 0-128z"/>
<glyph glyph-name="three-bars" unicode="&#101;" d="M64 416l0-64 384 0 0 64z m0-192l384 0 0 64-384 0z m0-128l384 0 0 64-384 0z"/>
<glyph glyph-name="down-dir" unicode="&#102;" d="M374 358c0 0-118-204-118-204 0 0-118 204-118 204 0 0 236 0 236 0"/>
<glyph glyph-name="up-dir" unicode="&#103;" d="M138 154c0 0 118 204 118 204 0 0 118-204 118-204 0 0-236 0-236 0"/>
<glyph glyph-name="right-dir" unicode="&#104;" d="M154 374c0 0 204-118 204-118 0 0-204-118-204-118 0 0 0 236 0 236"/>
<glyph glyph-name="left-dir" unicode="&#105;" d="M358 374c0 0 0-236 0-236 0 0-204 118-204 118 0 0 204 118 204 118"/>
<glyph glyph-name="right-open" unicode="&#106;" d="M219 397c0 0 116-121 116-121 5-5 8-12 8-20 0-8-3-14-8-19 0 0-116-121-116-121-5-6-12-8-20-8-9 0-15 2-21 8-12 12-12 26 0 41 0 0 95 99 95 99 0 0-95 100-95 100-12 15-12 29 0 41 6 6 13 9 21 9 9 0 15-3 20-9"/>
<glyph glyph-name="up-open" unicode="&#107;" d="M396 220c6-5 8-12 8-21 0-8-2-15-8-21-13-13-26-13-40 0 0 0-100 96-100 96 0 0-100-96-100-96-14-13-27-13-40 0-6 6-8 13-8 21 0 9 2 16 8 21 0 0 120 115 120 115 5 5 12 8 20 8 8 0 15-3 20-8 0 0 120-115 120-115"/>
<glyph glyph-name="down-open" unicode="&#108;" d="M396 293c0 0-120-115-120-115-6-6-12-9-20-9-8 0-14 3-20 9 0 0-120 115-120 115-6 5-8 12-8 21 0 8 2 15 8 21 13 13 26 13 40 0 0 0 100-96 100-96 0 0 100 96 100 96 14 13 27 13 40 0 6-6 8-13 8-21 0-9-2-16-8-21"/>
<glyph glyph-name="left-open" unicode="&#109;" d="M293 397c4 6 11 9 20 9 8 0 15-3 21-9 13-12 13-26 0-41 0 0-96-100-96-100 0 0 96-99 96-99 13-15 13-29 0-41-6-6-13-8-21-8-8 0-15 2-20 8 0 0-116 121-116 121-6 5-8 11-8 19 0 8 2 15 8 20 70 74 109 114 116 121"/>
<glyph glyph-name="phone" unicode="&#110;" d="M128 384l224 0 0-192-224 0z m64 64l96 0 0-32-96 0z m160 64l-224 0c-35 0-64-29-64-64l0-384c0-35 29-64 64-64l224 0c35 0 64 29 64 64l0 384c0 35-29 64-64 64m32-448c0-18-14-32-32-32l-224 0c-18 0-32 14-32 32l0 384c0 18 14 32 32 32l224 0c18 0 32-14 32-32z m-256 32l32 0 0-32-32 0z m64 0l32 0 0-32-32 0z m64 0l32 0 0-32-32 0z m64 0l32 0 0-32-32 0z m-192 64l32 0 0-32-32 0z m64 0l32 0 0-32-32 0z m64 0l32 0 0-32-32 0z m64 0l32 0 0-32-32 0z"/>
<glyph glyph-name="tablet" unicode="&#111;" d="M0 384c0 14 5 26 15 36 11 10 23 15 36 15 0 0 410 0 410 0 14 0 26-5 36-15 10-10 15-22 15-36 0 0 0-256 0-256 0-14-5-26-15-36-10-10-22-15-36-15 0 0-410 0-410 0-13 0-25 5-36 15-10 10-15 22-15 36 0 0 0 256 0 256m461 0c0 0-410 0-410 0 0 0 0-256 0-256 0 0 410 0 410 0 0 0 0 256 0 256"/>
<glyph glyph-name="resize-up" unicode="&#112;" d="M274 302l64 64-50 50 128 0 0-128-50 50-64-64z m0-92l28 28 64-64 50 50 0-128-128 0 50 50z m-36 0l-64-64 50-50-128 0 0 128 50-50 64 64z m0 92l-28-28-64 64-50-50 0 128 128 0-50-50z"/>
<glyph glyph-name="resize-down" unicode="&#113;" d="M448 420l-82-82 50-50-128 0 0 128 50-50 82 82z m0-328l-28-28-82 82-50-50 0 128 128 0-50-50z m-384 0l82 82-50 50 128 0 0-128-50 50-82-82z m0 328l28 28 82-82 50 50 0-128-128 0 50 50z"/>
<glyph glyph-name="loop" unicode="&#119;" d="M273 211l0-58c49 9 86 51 86 103 0 16-3 31-10 44-2 6-6 12-9 17l47 43c1-1 2-2 3-4 21-28 33-62 33-100l0-4c-1-71-48-132-111-154-13-5-26-8-39-9l0-57-76 67-26 23 44 39z m-184 49c2 72 48 133 113 155 12 4 24 7 37 8l0 57 76-67 26-23-44-39-59-51 1 58c-49-8-86-51-86-102 0-16 3-31 10-45 2-6 6-11 9-16l-47-44c-1 2-2 4-3 5-21 28-33 63-33 100z"/>
<glyph glyph-name="chat" unicode="&#120;" d="M256 63c-115 0-208 89-208 200 0 111 93 201 208 201 115 0 208-90 208-201 0-40-12-77-33-108-1-1-2-3-3-4-2-4-4-10-4-15l22-88-84 31c-4 2-8 2-12 2-4 0-7-1-11-2-1 0-1-1-2-1-25-10-52-15-81-15z"/>
<glyph glyph-name="power" unicode="&#121;" d="M392 396l0 0c-2 2-5 3-8 3-3 0-5-1-7-3l0 0-1 0c0 0 0 0 0 0l-21-19c0 0 0 0 0-1l0 0 0 0c-2-2-3-4-3-7 0-4 2-8 5-10 25-25 40-60 40-98 0-78-63-141-141-141-78 0-141 63-141 141 0 38 16 73 41 99l0 0c2 2 4 5 4 9 0 3-2 5-4 7l0 0 0 0c0 1 0 1 0 1l-21 19c0 0 0 0 0 0l-1 0 0 0c-2 2-4 3-7 3-4 0-8-2-10-6-33-34-53-81-53-132 0-106 86-192 192-192 106 0 192 86 192 192 0 52-21 100-56 135z m-150-205l28 0c0 0 0 0 0 0 6 0 11 5 11 11l0 230 0 0c0 0 0 0 0 0 0 6-5 11-11 11 0 0 0 0 0 0l-28 0c-6 0-11-5-11-11 0 0 0 0 0 0l0 0 0-230c0-6 5-11 11-11z"/>
<glyph glyph-name="big-truck" unicode="&#114;" d="M429 323l-28 0c-3 0-5 2-5 5 0 3 2 5 5 5l1 0 0 17c0 7 6 13 13 13 7 0 13-6 13-13l0-17 1 0c3 0 5-2 5-5 0-3-2-5-5-5z m-387-184l6 0c0-25 21-46 46-46 25 0 45 21 45 46l13 0c0-25 20-46 45-46 25 0 45 21 45 46l126 0c0-25 20-46 45-46 22 0 39 15 44 35l25 0c9 0 17 7 19 15 6 1 10 5 10 10 0 5-4 10-9 10l0 63c0 8-5 15-12 19l-19 64c0 0 0 1-1 2-2 2-11 10-19 10l-62 0c-3 0-5-3-5-6l0 29c-3 3-7 5-11 5 0 0-1 0-2 0l0 20-355 0 0-176 344 0 0-8-318 0c-11 0-20-9-20-20l0-6c0-11 9-20 20-20m343 0c0 15 13 28 28 28 16 0 28-13 28-28 0-16-12-28-28-28-15 0-28 12-28 28z m62 107l-43 0c-4 0-7 0-10-2l0 66 53 0z m32 0l-21 0 0 61c1-1 2-2 4-3z m-310-107c0 15 12 28 28 28 15 0 28-13 28-28 0-16-13-28-28-28-16 0-28 12-28 28z m-104 0c0 15 13 28 29 28 15 0 28-13 28-28 0-16-13-28-28-28-16 0-29 12-29 28z"/>
<glyph glyph-name="bus" unicode="&#115;" d="M502 163l0 63c0 8 0 12-1 19l-19 82c0 0-3 12-20 12-10 0-158 0-273 0l-6 11-102 0-6-11c-42 0-53 0-58 0-17 0-17-18-17-18l0-162c0-11 9-20 20-20l26 0c0-25 20-46 45-46 25 0 45 21 45 46l232 0c0-25 20-46 45-46 22 0 39 15 44 35l25 0c9 0 17 7 19 15 6 1 10 5 10 10 0 5-4 10-9 10z m-480 73l0 84c0 0 1 8 8 8 6 0 69 0 69 0l0-92z m69-125c-16 0-28 12-28 28 0 15 12 28 28 28 16 0 28-13 28-28 0-16-12-28-28-28z m104 125l-84 0 0 92 84 0z m11 92l88 0 0-92-88 0z m99-92l0 92 87 0 0-92z m108-125c-15 0-28 12-28 28 0 15 13 28 28 28 16 0 28-13 28-28 0-16-12-28-28-28z m76 132l1-11-1-25-61 0-27 29 0 92 57 0c10 0 13-3 14-6z m-93 100l29 0c2 0 5 2 5 5 0 3-3 5-5 5l-1 0 0 17c0 7-6 13-13 13-8 0-14-6-14-13l0-17-1 0c-2 0-4-2-4-5 0-3 2-5 4-5z"/>
<glyph glyph-name="car" unicode="&#116;" d="M71 153c0-6 5-11 11-11l4 0c6-9 17-16 29-16l5 0c2-18 18-33 37-33 19 0 35 15 37 33l180 0c1-18 17-33 36-33 20 0 37 16 37 36 7 3 12 8 16 13l8 0c5 0 10 5 10 11 0 5-5 10-10 10l-2 0 0 21c0 20-16 36-36 36l-58 0c-5 7-35 52-62 56 0 0-1 0-1 0l-123 0c-1 0-2 0-3-1-1-1-25-19-37-55l-34 0c-19 0-35-16-35-36l0-21c-5-1-9-5-9-10z m61-23c0 14 11 25 25 25 13 0 24-11 24-25 0-14-11-24-24-24-14 0-25 10-25 24z m59 135l3 0 0-45-34 0c9 26 26 42 31 45z m14-45l0 45 56 0 0-45z m157 0l-90 0 0 45 40 0c17-2 39-29 50-45z m24-90c0 14 11 25 24 25 14 0 25-11 25-25 0-14-11-24-25-24-13 0-24 10-24 24z m-123 150l-28 0c-3 0-5 2-5 5 0 3 2 5 5 5l1 0 0 17c0 7 6 13 13 13 8 0 13-6 13-13l0-17 1 0c3 0 5-2 5-5 0-3-2-5-5-5z"/>
<glyph glyph-name="crane" unicode="&#117;" d="M71 137c0 16 13 28 29 28 15 0 28-12 28-28 0-16-13-28-28-28-16 0-29 12-29 28z m280 0c0-25 21-45 46-45 21 0 39 14 44 34l24 0c10 0 18 7 20 16 5 0 9 4 9 9 0 6-3 10-9 10l0 63c0 9-4 16-11 19l-19 64c0 1-1 1-2 2-1 2-10 10-19 10l-62 0c-3 0-5-3-5-6l0-43c-3 3-6 5-10 5-8 0-14-6-14-14l0-78-313 0c-11 0-20-9-20-20l0-6c0-11 9-20 20-20l24 0c0-25 21-45 46-45 25 0 45 20 45 45l13 0c0-25 20-45 45-45 25 0 45 20 45 45l103 0m-176 0c0 16 12 28 28 28 15 0 28-12 28-28 0-16-13-28-28-28-16 0-28 12-28 28z m193 0c0 16 13 28 29 28 15 0 28-12 28-28 0-16-13-28-28-28-16 0-29 12-29 28z m62 108l-43 0c-3 0-7-1-9-3l0 66 52 0z m32 0l-21 0 0 60c1-1 3-2 4-3z m-407-21c0 0 6-12 15-4 7 6-3 20 2 21l3 107c-1 4-1 7 0 10l0 0 0 0c3 15 21 8 21 8l163-89 0 0 0-1 0 0 0 0 36-85-94 0-20 79-99 67-3-97c1 0 2-1 2-1l1 0c0 0 9-3 6-10-3-8-7-13-7-13 0 0-14-19-21-9-7 11-5 17-5 17z m357 97l-28 0c-2 0-5 3-5 5 0 3 3 5 5 5l1 0 0 17c0 7 6 13 13 13 8 0 14-6 14-13l0-17 0 0c3 0 5-2 5-5 0-2-2-5-5-5z"/>
<glyph glyph-name="fire-truck" unicode="&#118;" d="M429 323l-28 0c-3 0-5 2-5 5 0 3 2 5 5 5l1 0 0 17c0 7 6 13 13 13 7 0 13-6 13-13l0-17 1 0c3 0 5-2 5-5 0-3-2-5-5-5z m-180-29l0-63-24 0 0 63z m-148 0l0-63-24 0 0 63z m37 0l0-63-24 0 0 63z m37 0l0-63-24 0 0 63z m37 0l0-63-24 0 0 63z m74 0l0-63-24 0 0 63z m-244-155l6 0c0-25 21-46 46-46 25 0 45 21 45 46l13 0c0-25 20-46 45-46 25 0 45 21 45 46l126 0c0-25 20-46 45-46 22 0 39 15 44 35l25 0c9 0 17 7 19 15 6 1 10 5 10 10 0 5-4 10-9 10l0 63c0 8-5 15-12 19l-19 64c0 0 0 1-1 2-2 2-11 10-19 10l-62 0c-3 0-5-3-5-6l0 29c-3 3-7 5-11 5 0 0-1 0-2 0l0 20-355 0 0-63-12 0 0-12 12 0 0-63-12 0 0-13 12 0 0-25 344 0 0-8-318 0c-11 0-20-9-20-20l0-6c0-11 9-20 20-20m343 0c0 15 13 28 28 28 16 0 28-13 28-28 0-16-12-28-28-28-15 0-28 12-28 28z m62 107l-43 0c-4 0-7 0-10-2l0 66 53 0z m32 0l-21 0 0 61c1-1 2-2 4-3z m-310-107c0 15 12 28 28 28 15 0 28-13 28-28 0-16-13-28-28-28-16 0-28 12-28 28z m-104 0c0 15 13 28 29 28 15 0 28-13 28-28 0-16-13-28-28-28-16 0-29 12-29 28z m-1 92l0 63-43 0 0 12 297 0 0-12-19 0 0-63 19 0 0-13-297 0 0 13 31 0z"/>
<glyph glyph-name="pickup" unicode="&#122;" d="M80 265c0-16 0-102 0-102-5-1-9-5-9-10 0-6 5-11 11-11l4 0c6-9 17-16 29-16l5 0c2-18 18-33 37-33 19 0 35 15 37 33l180 0c1-18 17-33 36-33 20 0 37 16 37 36 7 3 12 8 16 13l8 0c5 0 10 5 10 11 0 5-5 10-10 10l-2 0 0 25c0 20-16 36-36 36l-15 0c-5 7-35 52-62 56 0 0 0 0-1 0l-263 0c0 0-12 2-12-15z m52-135c0 14 11 25 25 25 13 0 24-11 24-25 0-14-11-24-24-24-14 0-25 10-25 24z m274 93l-91 0 0 46 40 0c17-3 39-29 51-46z m-20-93c0 14 11 25 24 25 14 0 25-11 25-25 0-14-11-24-25-24-13 0-24 10-24 24z m-87 154l-28 0c-2 0-5 2-5 5 0 2 2 5 5 5l1 0 0 16c0 8 6 14 13 14 8 0 13-6 13-14l0-16 1 0c3 0 5-3 5-5 0-3-2-5-5-5z"/>
<glyph glyph-name="platform" unicode="&#65;" d="M485 161l0 63c0 9-4 16-11 19l-19 64c0 1-1 1-2 2-1 2-10 10-19 10l-62 0c-3 0-5-3-5-6l0-43c-3 3-6 5-10 5-8 0-14-6-14-14l0-78-302 0c-11 0-20-9-20-20l0-6c0-11 9-20 20-20l13 0c0-25 21-45 46-45 25 0 45 20 45 45l13 0c0-25 20-45 45-45 25 0 45 20 46 45l102 0c0-25 21-45 46-45 21 0 39 14 44 34l24 0c10 0 18 7 20 16 5 0 9 4 9 9 0 6-3 10-9 10z m-385-52c-16 0-29 12-29 28 0 16 13 28 29 28 15 0 28-12 28-28 0-16-13-28-28-28z m103 0c-15 0-28 12-28 28 0 16 13 28 28 28 16 0 28-12 28-28 0-16-12-28-28-28z m194 0c-16 0-29 12-29 28 0 16 13 28 29 28 15 0 28-12 28-28 0-16-13-28-28-28z m33 136l-43 0c-3 0-7-1-9-3l0 66 52 0z m11 0l0 60c1-1 3-2 4-3l17-57z m-389 16l32 0 176 45-120-50c-4 0-7 0-9 0-19 0-21-19-21-19l0-24-12 0c-8 0-14-6-14-13 0-8 6-14 14-14l139 0c8 0 14 6 14 14 0 7-6 13-14 13l-14 0 0 37 193 96c0 0 5 5 3 15-2 10-12 8-12 8l-50-14-6 4-59-16-2-5-174-47 0 79-99 0 0-94 26 0z m42 98l11 0 0-50-11 0z m-23 0l12 0 0-50-12 0z m-22 0l12 0 0-50-12 0z m-10-50l-12 0 0 50 12 0z"/>
<glyph glyph-name="tractor" unicode="&#66;" d="M224 178c0-19-15-34-34-34-19 0-34 15-34 34 0 18 15 33 34 33 19 0 34-15 34-33z m180 6c-25 0-46-21-46-46 0-25 21-45 46-45 25 0 45 20 45 45 0 25-20 46-45 46z m0-74c-16 0-28 13-28 28 0 16 12 28 28 28 15 0 28-12 28-28 0-15-13-28-28-28z m23 166l-120 0-24 90 0 0 0 20-138 0 0-109-30-25 6-7c17 17 40 27 66 27 52 0 94-42 94-94 0-8-1-16-3-24l74 0c7 22 28 38 52 38 17 0 32-7 42-19l8 0 0 76c0 15-12 27-27 27z m-169-6l-16 16-80 0 0 80 104 0 26-96z m-71-10c-46 0-83-37-83-82 0-46 37-83 83-83 45 0 82 37 82 83 0 45-37 82-82 82z m0-132c-28 0-50 22-50 50 0 27 22 49 50 49 27 0 49-22 49-49 0-28-22-50-49-50z"/>
<glyph glyph-name="truck" unicode="&#67;" d="M94 165l0-6c0-11 9-20 20-20l32 0c0-25 20-46 45-46 25 0 45 21 45 46l117 0c0-25 20-46 45-46 21 0 39 15 44 35l25 0c9 0 17 7 19 15 6 1 10 5 10 10 0 5-4 10-9 10l0 63c0 8-5 15-12 19l-19 64c0 0-1 1-1 2-2 2-11 10-19 10l-62 0c-3 0-6-3-6-6l0-43c-2 3-6 5-10 5-1 0-1 0-2 0l0 92-259 0 0-176 248 0 0-8-231 0c-11 0-20-9-20-20z m69-26c0 15 13 28 28 28 16 0 28-13 28-28 0-16-12-28-28-28-15 0-28 12-28 28z m207 0c0 15 12 28 28 28 16 0 28-13 28-28 0-16-12-28-28-28-16 0-28 12-28 28z m62 107l-44 0c-3 0-6 0-9-2l0 66 53 0 0-64z m-223 54c0 9 7 16 16 16l31 0c9 0 16-7 16-16l0-53c0-9-7-16-16-16l-31 0c-9 0-16 7-16 16z m-21-53c0-9-7-16-16-16l-31 0c-9 0-16 7-16 16l0 53c0 9 7 16 16 16l31 0c9 0 16-7 16-16z m275-1l-21 0 0 61c2-1 3-2 4-3z m-49 77l-28 0c-3 0-5 2-5 5 0 3 2 5 5 5l1 0 0 17c0 7 5 13 13 13 7 0 13-6 13-13l0-17 1 0c2 0 5-2 5-5 0-3-3-5-5-5z m-242-86l-31 0c-6 0-10 4-10 10l0 53c0 6 4 10 10 10l31 0c5 0 10-4 10-10l0-53c0-6-5-10-10-10z m53 73l31 0c6 0 10-4 10-10l0-53c0-6-4-10-10-10l-31 0c-5 0-10 4-10 10l0 53c0 6 5 10 10 10z"/>
<glyph glyph-name="talk" unicode="&#68;" d="M64 448l384 0 0-256-128 0-128-96 0 96-128 0z m-64 64l0-384 128 0 0-128 0 0 180 128 204 0 0 384z"/>
<glyph glyph-name="fit-target" unicode="&#69;" d="M256 278l0 0c20 0 38 8 51 21 13 14 20 32 20 51 0 40-31 71-71 71-40 0-71-31-71-71 0-19 7-38 20-51 13-13 31-21 51-21z m0 103c18 0 31-13 31-31 0-9-3-17-8-23-6-5-14-9-23-9l0 0c-9 0-17 4-23 9-5 6-8 14-8 23 0 18 13 31 31 31z m77-255c-10-14-18-26-25-37 41-5 64-16 69-23-7-9-48-26-121-26-73 0-114 17-121 26 5 7 28 18 69 23-7 11-15 23-25 37-48-9-85-29-85-60 0-46 81-66 162-66 81 0 162 20 162 66 0 31-37 51-85 60z m-93-45l16-24 16 24c4 5 98 142 118 173 22 36 27 64 27 98 0 88-72 160-161 160-89 0-161-72-161-160 0-34 5-62 27-98 20-31 114-168 118-173z m16 391c66 0 121-54 121-120 0-33-5-52-21-77-14-22-71-106-100-148-29 42-86 126-100 148-16 25-21 44-21 77 0 66 55 120 121 120z"/>
<glyph glyph-name="fit-job-target" unicode="&#70;" d="M427 512c-47 0-85-38-85-85 0-17 2-32 14-51 9-15 52-78 54-81l17-24 16 24c2 3 46 66 55 81 12 19 14 34 14 51 0 47-38 85-85 85z m37-115c-5-8-23-35-37-55-14 20-32 47-37 55-7 10-8 17-8 30 0 25 20 45 45 45 25 0 45-20 45-45 0-13-2-20-8-30z m-318-17c-2 4-1 7 0 8 1 2 3 5 8 5l99 0-28-28 29-28 75 76-75 76-29-29 28-27-99 0c-18 0-35-10-43-26-8-16-7-35 2-49l219-266-166 0 0-40 178 0c13 0 24 7 30 18 6 11 5 25-2 35z m-75-237c-40 0-71-31-71-71 0-20 7-38 21-51 13-14 31-21 50-21l1 0c19 0 37 7 50 21 14 13 21 31 21 51 0 40-31 71-72 71z m23-94c-6-6-14-9-22-9l-1 0c-8 0-16 3-22 9-6 6-9 14-9 22 0 19 13 32 32 32 18 0 31-13 31-32 0-8-3-16-9-22z"/>
<glyph glyph-name="fit-all" unicode="&#71;" d="M414 275l-17 24c-2 3-45 66-54 81-12 19-15 34-15 51 0 47 39 85 86 85 47 0 85-38 85-85 0-17-2-32-14-51-9-15-53-78-55-81z m0 201c-25 0-46-20-46-45 0-13 2-20 9-30 5-8 23-35 37-55 13 20 32 47 37 55 6 10 8 17 8 30 0 25-20 45-45 45z m-317-139l0 0c-20 0-38 8-51 21-13 13-21 31-21 51 0 40 32 71 72 71 40 0 71-31 71-71 0-20-7-38-20-51-14-13-32-21-51-21z m0 103c-18 0-32-13-32-31 0-9 3-17 9-23 6-5 14-9 22-9l1 0c9 0 17 4 22 9 6 6 9 14 9 23 0 18-13 31-31 31z m75-318l126 0 0-126-126 0z m18 307c14 3 30 5 45 5 25 0 49-5 70-13 0 3-1 7-1 10 0 11 2 21 5 31-23 8-48 12-74 12-22 0-42-3-61-8 8-11 13-24 16-37z m-42-338c-16 8-30 19-43 32-34 33-52 79-52 129 0 24 4 46 12 67-13 4-25 11-35 21-11-27-17-56-17-88 0-60 23-117 64-158 20-20 45-36 71-47l0 44z m306 200c-2-2-3-3-4-5l-34-50c-4-44-21-83-51-113-13-13-28-24-43-32l0-44c26 11 51 27 71 47 41 41 64 98 64 158 0 14-1 26-3 39z"/>
<glyph glyph-name="fit-off" unicode="&#72;" d="M40 384l0 88 87 0 0 40-127 0 0-128z m343 88l89 0 0-88 40 0 0 128-129 0z m-256-432l-87 0 0 88-40 0 0-128 127 0z m345 88l0-88-89 0 0-40 129 0 0 128z"/>
<glyph glyph-name="fit-on" unicode="&#73;" d="M40 384l0 88 87 0 0 40-127 0 0-128z m343 88l89 0 0-88 40 0 0 128-129 0z m-256-432l-87 0 0 88-40 0 0-128 127 0z m345 88l0-88-89 0 0-40 129 0 0 128z m-157 98l-31 30 31 30-29 29-30-31-30 31-29-29 31-30-31-30 29-29 30 31 30-31z"/>
<glyph glyph-name="message" unicode="&#74;" d="M256 50l-53 107-159 0 0 305 424 0 0-305-159 0z m-172 147l144 0 28-57 28 57 144 0 0 225-344 0z m77 174l190 0 0-40-190 0z m0-72l190 0 0-40-190 0z"/>
<glyph glyph-name="orto" unicode="&#75;" d="M509 455l-164-163c11-10 19-21 26-34l141-141 0 315c0 8-1 16-3 23z m-237-166c-45 0-81-36-81-81 0-45 36-81 81-81 45 0 81 36 81 81 0 45-36 81-81 81z m0-128c-26 0-47 21-47 47 0 26 21 47 47 47 26 0 47-21 47-47 0-26-21-47-47-47z m-80 234l-107-107 76-76c2 58 49 105 107 107z m48-304l-91-91 182 0z m32 134c-9 0-17-8-17-17 0-9 8-17 17-17 9 0 17 8 17 17 0 9-8 17-17 17z m-99-67l-109 109-64-64 0-123c0-44 36-80 80-80l27 0 111 111c-19 11-35 27-45 47z m259 354l-123 0-96-96 107-107 174 174c-15 18-37 29-62 29z m-49-308c-2-58-49-105-107-107l97-97 59 0c42 0 77 33 80 75z m-303 308c-44 0-80-36-80-80l0-187 53 54 214 213z"/>
<glyph glyph-name="poeple" unicode="&#76;" d="M158 418c0-22-18-40-40-40-22 0-40 18-40 40 0 23 18 40 40 40 22 0 40-17 40-40z m-85-180l4 0 0-79c0-11 9-20 20-20l42 0c10 0 19 9 19 20l0 5c-3 7-6 14-6 23l0 104c0 20 13 37 30 45l0 8c0 11-9 20-20 20l-89 0c-11 0-20-9-20-20l0-86c0-11 9-20 20-20z m362 180c0-22-18-40-40-40-22 0-40 18-40 40 0 23 18 40 40 40 22 0 40-17 40-40z m-105-74l0-8c17-7 30-25 30-45l0-104c0-8-2-16-6-23l0-4c0-11 9-20 19-20l42 0c11 0 20 9 20 20l0 79 4 0c11 0 20 9 20 20l0 85c0 11-9 20-20 20l-89 0c-11 0-20-9-20-20z m-148-53l0-104c0-11 9-20 20-20l8 0 0-94c0-10 9-19 20-19l53 0c11 0 20 8 20 19l0 94 7 0c11 0 20 9 20 20l0 104c0 10-9 19-20 19l-108 0c-11 0-20-9-20-19z m120 82c0-26-20-46-46-46-25 0-46 20-46 46 0 25 21 46 46 46 26 0 46-21 46-46z"/>
<glyph glyph-name="regions" unicode="&#77;" d="M147 448l-83 0 0-247 142 174z m118 0l-60 0 30-37z m-14-312l-59-72 118 0z m-29 36l-62 76-96-118 0-66 70 0z m147-108l79 0 0 167-108-132z m-180 219l122-149 137 168 0 146-124 0z"/>
<glyph glyph-name="street" unicode="&#78;" d="M272 255c-26 0-47-21-47-47 0-26 21-47 47-47 26 0 47 21 47 47 0 26-21 47-47 47z m0-64c-9 0-17 8-17 17 0 9 8 17 17 17 9 0 17-8 17-17 0-9-8-17-17-17z m160 321l-352 0c-44 0-80-36-80-80l0-352c0-44 36-80 80-80l352 0c44 0 80 36 80 80l0 352c0 44-36 80-80 80z m0-30c17 0 31-8 40-20l-152-153-107 107 66 66z m-160-193c45 0 81-36 81-81 0-45-36-81-81-81-45 0-81 36-81 81 0 45 36 81 81 81z m-111-77l-76 76 107 107 76-76c-58-2-105-49-107-107z m-131 220c0 28 22 50 50 50l157 0-207-207z m50-402c-28 0-50 22-50 50l0 153 34 34 109-109c10-20 26-36 45-47l-81-81z m99 0l61 61 61-61z m303 50c0-28-22-50-50-50l-89 0-67 67c58 2 105 49 107 107l99-99z m0 67l-111 111c-7 13-15 24-26 34l137 137z"/>
<glyph glyph-name="target" unicode="&#79;" d="M256 476c61 0 113-21 156-64 43-43 64-95 64-156 0-61-21-113-64-156-43-43-95-64-156-64-61 0-113 21-156 64-43 43-64 95-64 156 0 61 21 113 64 156 43 43 95 64 156 64m18-398c43 5 79 22 109 52 30 30 47 66 51 109 0 0-98 0-98 0 0 0 0 35 0 35 0 0 98 0 98 0-4 43-21 79-51 109-30 30-66 47-109 52 0 0 0-99 0-99 0 0-35 0-35 0 0 0 0 99 0 99-43-5-79-22-109-52-31-30-48-66-52-109 0 0 99 0 99 0 0 0 0-35 0-35 0 0-99 0-99 0 4-43 21-79 52-109 30-30 66-47 109-52 0 0 0 99 0 99 0 0 35 0 35 0 0 0 0-99 0-99"/>
<glyph glyph-name="fire" unicode="&#80;" d="M384 320c0 0-23-1-78-32l-4 5c2 42 6 92 18 123-7-4-32-25-62-47-15 36-20 105-2 143-141-101-224-245-224-336 0-70-10-176 160-176 265 0 128 192 192 320m-173-270c-192-5-69 182-89 144-3-5-17-49 51-85-34 42 27 92 49 115 0-59 24-115 24-115 0 0 39 23 67 105 24-105 5-160-102-164"/>
<glyph glyph-name="cog" unicode="&#81;" d="M329 256c0 20-7 37-21 52-15 14-32 21-52 21-20 0-37-7-52-21-14-15-21-32-21-52 0-20 7-37 21-52 15-14 32-21 52-21 20 0 37 7 52 21 14 15 21 32 21 52z m146 31l0-63c0-3 0-5-2-7-1-2-3-3-6-4l-52-8c-4-10-8-19-12-26 7-9 17-22 31-39 2-2 3-5 3-7 0-3-1-5-3-7-5-7-14-17-28-31-14-13-23-20-27-20-2 0-5 1-7 3l-40 31c-8-5-17-8-26-11-3-26-6-44-8-53-1-6-5-8-10-8l-64 0c-2 0-5 0-7 2-2 2-3 4-3 6l-8 53c-9 3-18 6-26 10l-40-30c-2-2-4-3-7-3-3 0-5 1-7 3-24 22-40 38-47 48-2 2-2 4-2 7 0 2 0 4 2 6 3 4 8 11 14 19 7 9 12 16 16 21-5 9-9 19-12 28l-52 8c-3 0-5 1-6 3-2 2-2 4-2 7l0 63c0 3 0 5 2 7 1 2 3 3 5 4l53 8c3 8 7 17 12 26-8 11-18 24-31 39-2 3-3 5-3 7 0 2 1 4 3 7 5 7 14 17 28 30 14 14 23 21 27 21 2 0 5-1 7-3l40-31c8 5 17 8 26 11 3 26 6 44 8 53 1 6 5 8 10 8l64 0c2 0 5 0 7-2 2-2 3-4 3-6l8-53c9-3 18-6 26-10l40 30c2 2 4 3 7 3 3 0 5-1 7-3 25-23 41-39 47-49 2-1 2-3 2-6 0-2 0-4-2-6-3-4-8-11-14-19-7-9-12-16-16-21 5-9 9-18 12-28l52-8c3 0 5-1 6-3 2-2 2-4 2-7z"/>
<glyph glyph-name="wrench" unicode="&#82;" d="M442 392l-20-20-19-19-25-24c-13-1-26 4-36 13-9 10-14 23-13 36l63 64c1 1 1 3 0 4 0 1 0 1-1 1l0 0c0 0 0 0 0 0 0 0 0 0 0 0-14 6-29 10-45 10-61 0-111-50-111-111 0-12 2-23 6-33l-116-116c-39-1-70-32-70-71 0-39 32-71 71-71 39 0 70 31 71 70l116 116c10-4 21-6 33-6 61 0 111 50 111 111 0 16-4 31-10 45 0 0 0 0 0 0 0 0 0 1 0 1l0 0c0 0-1 0-1 0-1 1-3 1-4 0z m-286-266c0-16-14-29-30-29-16 0-29 13-29 29 0 16 13 30 29 30 16 0 30-14 30-30z"/>
<glyph glyph-name="minus" unicode="&#84;" d="M457 302l0-55c0-8-3-14-8-20-5-5-12-8-19-8l-348 0c-7 0-14 3-19 8-5 6-8 12-8 20l0 55c0 7 3 14 8 19 5 5 12 8 19 8l348 0c7 0 14-3 19-8 5-5 8-12 8-19z"/>
<glyph glyph-name="home" unicode="&#83;" d="M428 318l-167 129c-4 4-11 4-16 0l-161-129c-3-2-5-6-5-10l0-233c0-7 6-13 13-13l96 0c7 0 13 6 13 13l0 143 110 0 0-143c0-7 6-13 13-13l96 0c7 0 13 6 13 13l0 233c0 4-2 8-5 10z"/>
<glyph glyph-name="exclamation" unicode="&#85;" d="M311 155l0-64c0-5-2-9-6-12-3-4-7-6-12-6l-74 0c-5 0-9 2-12 6-4 3-6 7-6 12l0 64c0 5 2 10 6 13 3 4 7 6 12 6l74 0c5 0 9-2 12-6 4-3 6-8 6-13z m8 302l-8-219c0-5-2-10-5-13-4-4-8-6-13-6l-74 0c-5 0-9 2-13 6-3 3-5 8-5 13l-8 219c-1 5 1 9 5 13 3 4 7 5 12 5l92 0c5 0 9-1 12-5 4-4 6-8 5-13z"/>
<glyph glyph-name="close" unicode="&#86;" d="M426 134c0-7-3-14-8-19l-39-39c-5-5-12-8-20-8-7 0-14 3-19 8l-84 84-84-84c-5-5-12-8-19-8-8 0-15 3-20 8l-39 39c-5 5-8 12-8 19 0 8 3 14 8 20l84 84-84 84c-5 5-8 12-8 19 0 8 3 14 8 20l39 38c5 6 12 8 20 8 7 0 14-2 19-8l84-84 84 84c5 6 12 8 19 8 8 0 15-2 20-8l39-38c5-6 8-12 8-20 0-7-3-14-8-19l-84-84 84-84c5-6 8-12 8-20z"/>
<glyph glyph-name="question" unicode="&#88;" d="M360 456c30-21 44-53 44-95 0-21-7-43-21-63-4-7-19-20-45-41 0 0-24-15-24-15-13-12-21-22-24-31-2-6-4-13-4-23 0-4-3-7-8-7 0 0-66 0-66 0-5 0-8 2-8 6 1 34 6 55 14 64 6 7 14 16 25 24 11 9 20 16 28 22 0 0 13 7 13 7 7 6 13 11 17 18 10 15 14 26 14 35 0 14-4 27-13 40-9 13-25 19-47 19-23 0-39-8-48-23-10-14-14-30-14-47 0 0-85 0-85 0 2 55 21 95 58 119 24 14 52 21 85 21 44 0 81-10 109-30m-110-326c15 0 27-5 37-15 10-11 15-23 14-38-1-16-6-28-16-38-11-9-23-13-38-12-15 0-28 5-38 14-9 10-14 23-13 39 0 16 6 28 16 37 10 9 23 14 38 13"/>
<glyph glyph-name="line" unicode="&#89;" d="M457 158c0-5-1-12-3-20-2-9-4-15-6-20-4-10-15-20-35-30-17-10-35-15-53-15-5 0-10 0-15 1-5 1-10 2-16 4-6 1-11 3-14 4-3 1-8 3-16 6-7 3-12 4-14 5-18 7-35 14-50 24-24 15-49 35-75 61-26 26-47 51-62 76-9 14-17 31-23 50-1 1-3 6-6 14-2 7-4 13-5 16-1 3-3 7-5 13-1 6-2 12-3 17-1 4-1 9-1 15 0 17 5 35 14 53 11 19 21 31 31 35 4 2 11 4 19 6 9 1 15 2 20 2 3 0 5 0 6 0 4-2 9-9 16-22 2-4 5-9 8-16 4-6 7-12 10-18 3-5 6-10 9-15 1-1 2-3 5-7 3-4 5-8 6-10 1-3 2-6 2-8 0-4-3-9-8-15-5-5-11-11-18-15-6-5-12-10-17-16-6-5-9-9-9-13 0-1 1-4 2-6 1-3 2-5 2-6 1-1 2-4 4-7 2-3 3-5 4-5 14-26 31-49 49-67 19-19 41-36 67-50 1 0 3-1 6-3 3-2 5-4 7-4 1-1 3-2 6-3 2-1 4-1 6-1 3 0 8 2 13 8 5 5 11 11 15 18 5 6 10 12 16 17 6 6 10 8 14 8 3 0 6 0 8-2 3-1 7-3 11-6 4-2 6-4 7-5 4-3 10-6 15-9 5-3 11-6 18-10 7-3 12-6 16-8 13-7 20-12 21-15 1-2 1-4 1-6z"/>
<glyph glyph-name="flag" unicode="&#90;" d="M352 448c-96 0-160 57-256 32l0 16c0 0 0 16-16 16-16 0-16-16-16-16l0-496 32 0 0 192c96 32 160-32 256-32 96 0 128 32 128 32l0 288c0 0-32-32-128-32z"/>
<glyph glyph-name="search" unicode="&#49;" d="M347 274c0 36-12 66-37 91-25 25-55 37-91 37-35 0-65-12-90-37-25-25-38-55-38-91 0-35 13-65 38-90 25-25 55-38 90-38 36 0 66 13 91 38 25 25 37 55 37 90z m147-237c0-10-4-19-11-26-7-7-16-11-26-11-10 0-19 4-26 11l-98 98c-34-24-72-36-114-36-27 0-53 5-78 16-25 11-46 25-64 43-18 18-32 39-43 64-10 25-16 51-16 78 0 28 6 54 16 78 11 25 25 47 43 65 18 18 39 32 64 43 25 10 51 15 78 15 28 0 54-5 79-15 24-11 46-25 64-43 18-18 32-40 43-65 10-24 16-50 16-78 0-42-12-80-36-114l98-98c7-7 11-15 11-25z"/>
<glyph glyph-name="road" unicode="&#50;" d="M299 227l0 2-7 91c0 2-1 5-3 6-2 2-4 3-6 3l-54 0c-2 0-4-1-6-3-2-1-3-4-3-6l-7-91 0-2c0-2 0-4 2-5 2-2 4-3 6-3l70 0c2 0 4 1 6 3 2 1 2 3 2 5z m217-133c0-14-4-21-13-21l-201 0c2 0 4 1 6 3 2 2 2 4 2 6l-5 73c-1 3-2 5-4 7-1 2-4 3-6 3l-78 0c-2 0-5-1-6-3-2-2-3-4-4-7l-5-73c0-2 0-4 2-6 2-2 4-3 6-3l-201 0c-9 0-13 7-13 21 0 10 2 21 7 33l120 298c1 4 4 7 7 10 3 3 7 4 11 4l97 0c-3 0-5-1-7-3-2-2-3-4-3-6l-4-55c0-3 0-5 2-7 2-1 4-2 6-2l48 0c2 0 4 1 6 2 2 2 2 4 2 7l-4 55c0 2-1 4-3 6-2 2-4 3-7 3l97 0c4 0 8-1 11-4 3-3 6-6 7-10l120-298c5-12 7-23 7-33z"/>
<glyph glyph-name="reversed-exclamation-triangle" unicode="&#51;" d="M43 484c-33 0-54-36-37-64l213-370c16-29 58-29 74 0l213 370c17 28-4 64-37 64z m214-70c28 0 30 0 34-4 3-4 3-6 0-67-3-51-4-64-7-66-2-3-6-4-28-4-18 0-26 1-28 3-3 4-4 10-7 71l-3 60 4 3c4 4 8 4 35 4z m-1-159c20 0 39-16 39-40 0-12-4-21-13-29-12-11-25-13-39-8-29 10-36 48-12 68 7 6 16 9 25 9z"/>
<glyph glyph-name="destination-full" unicode="&#52;" d="M361 503l-212 0-149-145 1-205 150-144 212 0 149 145-1 205z m-24-170c9 1 18-7 18-18l-1-33 104 0c7 0 12-5 12-12l0-27c0-6-5-11-12-11l-104 0 1-34c0-16-19-24-30-13l-59 59c-7 7-7 18 0 25l59 59c3 4 7 5 12 5z m-167 0c4 0 9-1 12-5l59-59c7-7 7-18 0-25l-59-59c-11-11-30-3-30 13l1 34-104 0c-7 0-12 5-12 11l0 27c0 7 5 12 12 12l104 0-1 33c0 11 9 18 18 18z"/>
<glyph glyph-name="muv" unicode="&#53;" d="M263 447l0-236-254 0 0-52 35 0c7-43 32-65 76-65 44 0 69 22 76 65l118 0c7-43 32-65 76-65 44 0 69 22 76 65l38 0 0 288z m20-43l200 0 0-110-200 0z m-275-306l496 0 0-25-496 0z"/>
<glyph glyph-name="train" unicode="&#54;" d="M347 512c36 0 66-9 91-27 25-18 37-39 37-64l0-256c0-25-12-46-35-64-24-17-53-27-88-28l61-57c3-3 4-6 2-10-1-4-4-6-8-6l-302 0c-4 0-7 2-8 6-2 4-1 7 2 10l61 57c-35 1-64 11-88 28-23 18-35 39-35 64l0 256c0 25 12 46 37 64 25 18 55 27 91 27z m-91-384c15 0 28 5 39 16 11 11 16 24 16 39 0 15-5 28-16 39-11 10-24 16-39 16-15 0-28-6-39-16-11-11-16-24-16-39 0-15 5-28 16-39 11-11 24-16 39-16z m165 165l0 146-330 0 0-146z"/>
<glyph glyph-name="ispd" unicode="&#56;" d="M38 31l-35 0 0 434c0 5 1 9 3 13 2 3 4 5 6 5l16 0c3 0 5-2 7-5 2-4 3-8 3-13z m68 396c-9 0-14-10-14-28l0-87c0-18 5-27 14-27l50 0c12 0 21-7 28-22 7-15 10-33 10-54l0-99c0-22-3-41-11-56-8-15-17-23-29-23l-58 0c-12 0-22 7-29 22-7 15-11 34-11 57l33 0c0-8 1-14 3-18 3-3 6-5 10-5l44 0c10 0 15 9 15 27l0 87c0 18-5 27-15 27l-48 0c-11 0-21 8-28 24-8 15-12 34-12 56l0 99c0 21 4 39 11 54 7 15 16 23 27 23l59 0c11 0 21-8 27-22 7-14 10-33 10-55l-32 0c0 13-4 20-13 20z m246-131c0-21-3-38-10-51-7-13-16-19-27-19l-67 0 0-196-34 0 0 453 93 0c12 0 23-8 32-23 9-15 13-35 13-58z m-34 15l0 80c0 15-4 27-10 34-2 2-4 3-7 3l-53 0 0-147 59 0c6 0 10 7 10 19 1 4 1 8 1 11z m191-209c0-21-3-38-10-51-7-13-16-20-27-20l-101 0 0 452 93 0c12 0 23-8 32-23 9-15 13-35 13-58z m-34 15l0 274c0 15-3 27-10 34-2 2-4 3-7 3l-53 0 0-341 59 0c6 0 10 6 10 19 1 4 1 8 1 11z"/>
<glyph glyph-name="destination" unicode="&#87;" d="M262 256l123-95 0 64 122 0 0 65-122 0 0 62z m-13 1l-123 95 0-64-122 0 0-65 122 0 0-62z"/>
<glyph glyph-name="chat-2" unicode="&#55;" d="M23 464c-6 0-12-2-16-6-5-4-7-10-7-16l0-277c0-14 10-24 23-24l387 0c6 0 11-2 15-6l87-93 0 398c0 13-10 23-22 23z m386-85c8 0 17-1 25-2 9-1 18-3 27-6l0-31c-8 3-16 6-24 8-8 2-15 3-22 3-9 0-16-2-20-4-5-3-7-7-7-12 0-4 1-7 4-9 3-3 9-4 17-6l16-3c17-4 29-9 36-16 7-6 10-16 10-29 0-16-5-29-15-37-9-8-24-12-44-12-10 0-19 1-29 3-10 2-19 5-29 8l0 33c10-5 19-9 28-12 9-2 18-4 26-4 8 0 15 2 19 5 5 2 7 6 7 12 0 4-2 8-5 10-3 3-9 5-18 7l-15 4c-15 3-26 8-33 15-7 7-10 16-10 28 0 15 5 27 14 35 10 8 24 12 42 12z m-361-3l39 0 0-57 57 0 0 57 38 0 0-150-38 0 0 64-57 0 0-64-39 0z m159 0l126 0 0-23-81-98 83 0 0-29-130 0 0 24 80 97-78 0z"/>
<glyph glyph-name="chat-3" unicode="&#57;" d="M23 456c-6 0-12-3-16-7-5-4-7-10-7-16l0-276c0-13 10-23 23-23l385 0c6 0 11-2 15-6l87-93 0 396c0 13-10 23-22 23z m352-85c8 0 16-1 25-2 8-1 17-3 26-5l0-32c-8 4-16 7-24 9-7 1-15 2-21 2-9 0-16-1-21-3-4-3-6-7-6-12 0-4 1-7 4-9 3-3 9-4 16-6l16-3c17-4 29-9 35-15 7-7 11-17 11-29 0-16-5-28-15-36-9-8-24-12-44-12-9 0-19 1-28 2-9 2-19 5-28 8l0 33c9-5 18-9 27-12 9-2 17-4 25-4 9 0 15 2 20 5 4 2 6 6 6 11 0 5-1 9-4 11-3 3-9 5-18 7l-15 3c-15 3-26 8-32 15-7 7-11 16-11 28 0 15 5 26 15 34 9 8 23 12 41 12z m-295-3l40 0c23 0 39-1 50-5 11-3 21-8 29-16 6-6 12-14 15-23 3-9 5-18 5-29 0-12-2-21-5-30-3-9-9-17-15-23-8-8-18-13-29-17-11-3-28-4-50-4l-40 0z m168 0l38 0 0-147-38 0z m-130-29l0-90 14 0c15 0 27 4 35 12 9 8 13 19 13 34 0 14-4 25-12 33-9 8-21 11-36 11z"/>
<glyph glyph-name="paperclip" unicode="&#34;" d="M456 116c0-22-8-41-23-56-15-15-33-22-56-22-25 0-48 9-67 28l-222 222c-21 22-32 48-32 77 0 31 10 56 31 78 21 21 47 31 77 31 30 0 56-10 78-32l173-173c2-2 3-4 3-6 0-3-3-8-9-14-6-6-10-8-13-8-2 0-5 1-7 2l-173 174c-15 15-32 22-51 22-21 0-38-7-52-22-13-14-20-31-20-51 0-20 7-38 21-52l222-222c12-12 26-18 41-18 13 0 23 4 31 12 8 8 12 18 12 30 0 16-6 30-18 42l-166 166c-5 4-11 7-17 7-6 0-11-2-14-6-4-3-6-8-6-14 0-6 3-11 8-16l117-118c2-1 3-4 3-6 0-3-3-7-9-13-6-6-11-9-14-9-2 0-4 1-6 3l-117 117c-12 11-18 26-18 42 0 16 5 29 16 40 11 11 24 16 40 16 17 0 31-6 42-18l166-166c19-18 29-41 29-67z"/>
<glyph glyph-name="drone" unicode="&#35;" d="M256 257c-8 0-14-3-20-9-5-5-8-12-8-20 0-7 3-14 8-20 6-5 12-8 20-8 8 0 15 3 20 8 6 6 8 13 8 20 0 8-2 15-8 20-5 6-12 9-20 9z m23 66l1 0c11 0 20-2 27-5 8-3 14-8 19-14l90 0 0 26c-11 0-21 1-30 2-7 0-13 1-19 2-16 2-25 5-25 9 0 3 9 6 25 8 14 2 31 4 49 4l0 1c0 1 1 3 1 4 1 2 2 3 3 5 2 2 5 3 9 3 3 0 6-1 9-3 2-3 3-5 3-9 0 0 0 0 0 0l0-1c7 0 13-1 19-1 9-1 19-1 27-3 0 0 1 0 1 0 16-2 24-5 24-8 0-4-8-7-24-9 0 0-1 0-1 0-13-2-28-3-46-4l0-26 11 0c3 0 6-1 9-4 2-2 3-5 3-8 0-3 0-5-1-7-3-3-6-5-10-6-34-8-68-16-102-24l39-82c1 0 1-1 1-1 9-26 3-47-19-63-3-2-6-3-10-2-3 0-6 2-8 5-2 3-2 6-2 9 1 3 2 6 5 8 12 9 16 20 11 34l-41 86-11-3 0-42c0-3-1-6-2-9l0 0c-2-3-4-5-6-6l-43-25 0 0c-3-1-6-2-9-2-3 0-6 1-8 2l-43 25 0 0c-3 2-5 4-6 6-2 3-3 6-3 9l0 42-10 3-41-86c-5-14-2-25 10-34 3-2 5-5 5-8 1-3 0-6-2-9-2-3-5-5-8-5-3-1-6 0-9 2-23 16-29 37-20 63 0 0 1 1 1 1l39 82c-34 8-68 16-102 24-4 1-7 3-9 6-2 2-2 4-2 7 0 3 1 6 3 8 3 3 6 4 9 4l11 0 0 26c-17 1-33 2-46 4 0 0-1 0-1 0-16 2-23 5-23 9 0 3 7 6 23 8 0 0 1 0 1 0 9 2 18 2 28 3 6 0 12 1 18 1l0 1c0 0 0 0 0 0 0 4 1 6 4 9 2 2 5 3 9 3 3 0 6-1 8-3 2-2 3-3 3-5 1-1 1-3 1-4l0-1c19 0 35-2 49-4 17-2 25-5 25-8 0-4-8-7-25-9-6-1-12-2-19-2-9-1-19-2-30-2l0-26 90 0c5 6 11 11 19 14 8 3 17 5 27 5l1 0c1 0 3 0 4 0l38 0c2 0 3 0 4 0z m-23-80c4 0 7-2 10-5 3-2 4-6 4-10 0-3-1-7-4-10-3-2-6-4-10-4-4 0-7 2-10 4-3 3-4 7-4 10 0 4 1 8 4 10 3 3 6 5 10 5z"/>
<glyph glyph-name="notification" unicode="&#36;" d="M43 299c0 35 8 68 23 98 16 29 37 54 64 73l25-34c-21-15-38-35-51-59-12-24-19-50-19-78z m384 0c0 28-7 54-19 78-13 24-30 44-51 59l25 34c27-19 48-44 64-73 15-30 23-63 23-98z m-342-192l0 42 43 0 0 150c0 29 9 55 27 78 17 23 41 38 69 45l0 15c0 9 3 17 9 23 7 6 14 9 23 9 9 0 16-3 23-9 6-6 9-14 9-23l0-15c28-7 52-22 69-45 18-23 27-49 27-78l0-150 43 0 0-42z m171 160z m0-224c-12 0-22 4-30 12-8 9-13 19-13 30l86 0c0-11-5-21-13-30-8-8-18-12-30-12z m-85 106l170 0 0 150c0 23-8 43-25 60-16 17-37 25-60 25-23 0-44-8-60-25-17-17-25-37-25-60z"/>
<glyph glyph-name="cancel-circle" unicode="&#37;" d="M179 149l77 77 77-77 30 30-77 77 77 77-30 30-77-77-77 77-30-30 77-77-77-77z m77-106c-30 0-57 5-83 16-26 12-49 27-68 46-19 19-34 42-46 68-11 26-16 53-16 83 0 30 5 57 16 83 12 26 27 49 46 68 19 19 42 34 68 46 26 11 53 16 83 16 30 0 57-5 83-16 26-12 49-27 68-46 19-19 34-42 46-68 11-26 16-53 16-83 0-30-5-57-16-83-12-26-27-49-46-68-19-19-42-34-68-46-26-11-53-16-83-16z m0 42c48 0 88 17 121 50 33 33 50 73 50 121 0 48-17 88-50 121-33 33-73 50-121 50-48 0-88-17-121-50-33-33-50-73-50-121 0-48 17-88 50-121 33-33 73-50 121-50z m0 171z"/>
<glyph glyph-name="support" unicode="&#38;" d="M235 64l0 43 170 0 0 151c0 42-14 77-43 106-29 29-64 43-106 43-42 0-77-14-106-43-29-29-43-64-43-106l0-130-22 0c-11 0-21 4-30 13-8 8-12 18-12 30l0 42c0 8 2 15 5 21 4 7 9 12 16 16l2 28c2 25 9 47 21 68 11 20 25 38 42 53 17 16 36 28 58 36 22 9 45 13 69 13 24 0 47-4 69-13 21-8 41-20 58-35 17-15 31-33 42-54 11-20 18-43 21-67l2-28c7-3 12-8 16-14 3-7 5-13 5-20l0-50c0-7-2-13-5-20-4-6-9-11-16-14l0-26c0-12-4-22-13-30-8-9-18-13-30-13z m-43 149c-6 0-11 2-15 6-4 5-6 10-6 16 0 6 2 11 6 15 4 4 9 6 15 6 6 0 11-2 15-6 4-4 6-9 6-15 0-6-2-11-6-16-4-4-9-6-15-6z m128 0c-6 0-11 2-15 6-4 5-6 10-6 16 0 6 2 11 6 15 4 4 9 6 15 6 6 0 11-2 15-6 4-4 6-9 6-15 0-6-2-11-6-16-4-4-9-6-15-6z m-191 33c-3 38 8 70 34 97 25 27 56 41 94 41 32 0 60-10 84-30 24-20 38-46 43-77-32 0-62 9-89 26-28 17-48 40-63 69-6-28-18-54-36-76-18-22-41-39-67-50z"/>
<glyph glyph-name="warning" unicode="&#39;" d="M21 64l235 405 235-405z m74 43l322 0-161 277z m161 21c6 0 11 2 15 6 4 4 6 9 6 15 0 6-2 11-6 16-4 4-9 6-15 6-6 0-11-2-15-6-4-5-6-10-6-16 0-6 2-11 6-15 4-4 9-6 15-6z m-21 64l42 0 0 107-42 0z m21 53z"/>
<glyph glyph-name="front-hand" unicode="&#40;" d="M256 256l0 213c0 6 2 11 6 16 4 4 9 6 15 6 6 0 11-2 16-6 4-5 6-10 6-16l0-213z m-85 0l0 192c0 6 2 11 6 15 4 4 9 6 15 6 6 0 11-2 15-6 4-4 6-9 6-15l0-192z m96-235c-51 0-94 18-129 53-35 35-53 78-53 129l0 202c0 6 2 11 6 16 5 4 10 6 16 6 6 0 11-2 15-6 4-5 6-10 6-16l0-202c0-39 13-72 40-99 27-27 60-40 99-40 38 0 71 13 98 40 27 27 40 60 40 99l0 74c-6 0-11-2-15-6-4-4-6-9-6-15l0-85-64 0c-12 0-22-5-30-13-8-8-13-18-13-30l0-21-42 0 0 21c0 23 8 44 25 60 16 17 37 25 60 25l21 0 0 214c0 6 2 11 6 15 5 4 10 6 16 6 6 0 11-2 15-6 4-4 6-9 6-15l0-111c4 1 7 2 10 3 4 1 7 1 11 1l43 0 0-117c0-51-18-94-53-129-35-35-78-53-128-53z m21 171z"/>
<glyph glyph-name="eye" unicode="&#48;" d="M0 281l-2-19c101-203 381-224 512-40l2 19c-100 202-381 224-512 40m251-145c-64 5-112 61-107 125 5 64 61 112 125 106 64-5 112-61 107-125-5-64-61-112-125-106m9 174c-32 0-58-26-58-58 0-33 26-59 58-59 32 0 58 26 58 59 0 32-26 58-58 58"/>
<glyph glyph-name="forum" unicode="&#41;" d="M148 200c0 0 180 0 180 0 0 0 1 0 3 1 0 0 2 0 2 0 0 0 0-47 0-47 0-14-5-26-15-36-10-10-22-16-36-16 0 0-128 0-128 0 0 0-77-76-77-76 0 0 0 76 0 76 0 0-26 0-26 0-13 0-25 6-36 16-10 10-15 22-15 36 0 0 0 153 0 153 0 15 5 27 15 37 11 9 23 14 36 14 0 0 97 0 97 0 0 0 0-158 0-158m313 286c14 0 26-5 36-14 10-10 15-22 15-37 0 0 0-153 0-153 0-14-5-26-15-36-10-10-22-16-36-16 0 0-26 0-26 0 0 0 0-76 0-76 0 0-77 76-77 76 0 0-179 0-179 0 0 0 0 205 0 205 0 15 5 27 16 37 10 9 22 14 35 14 0 0 231 0 231 0"/>
<glyph glyph-name="tools" unicode="&#42;" d="M501 116l-117 117c-23 23-58 28-85 14l-107 107 0 62-128 96-64-64 96-128 62 0 107-107c-14-27-9-62 14-85l117-117c14-15 38-15 52 0l53 53c15 14 15 38 0 52z m-169 171c28 0 55-11 75-31l19-19c16 6 31 16 44 29 37 37 50 89 38 137-2 9-14 12-20 5l-75-74-68 11-11 68 74 74c7 7 4 18-5 21-48 11-100-1-137-38-28-29-42-66-41-104l82-82c8 2 17 3 25 3z m-104-82l-57 57-152-153c-25-25-25-65 0-90 25-25 65-25 90 0l124 123c-8 20-10 42-5 63z m-164-165c-13 0-24 11-24 24 0 13 11 24 24 24 13 0 24-11 24-24 0-13-11-24-24-24z"/>
<glyph glyph-name="share" unicode="&#43;" d="M512 329c0-5-2-9-5-13l-147-146c-3-4-8-5-13-5-5 0-9 1-12 5-4 4-6 8-6 13l0 73-64 0c-19 0-35-1-50-2-15-1-29-3-44-6-15-3-27-7-38-12-11-5-21-12-30-20-9-8-17-18-23-29-6-11-11-24-14-39-3-16-5-33-5-52 0-10 1-22 2-35 0-1 0-4 0-7 1-3 1-6 1-7 0-3-1-6-2-8-2-1-4-2-7-2-3 0-6 1-8 4-1 2-3 4-4 7-1 2-2 5-4 8-1 4-2 6-3 7-24 54-36 97-36 129 0 38 5 70 15 95 31 77 114 115 250 115l64 0 0 73c0 5 2 10 6 13 3 4 7 6 12 6 5 0 10-2 13-6l147-146c3-4 5-8 5-13z"/>
<glyph glyph-name="cancel-1" unicode="&#44;" d="M256 475c40 0 77-9 110-29 34-20 60-46 80-80 20-33 29-70 29-110 0-40-9-77-29-110-20-34-46-60-80-80-33-20-70-29-110-29-40 0-77 9-110 29-34 20-60 46-80 80-20 33-29 70-29 110 0 40 9 77 29 110 20 34 46 60 80 80 33 20 70 29 110 29z m37-356l0 54c0 3-1 5-3 7-2 2-4 3-6 3l-55 0c-3 0-5-1-7-3-2-2-3-4-3-7l0-54c0-2 1-5 3-6 2-2 4-3 7-3l55 0c2 0 4 1 6 2 2 2 3 4 3 7z m-1 98l5 178c0 2-1 4-3 5-2 2-4 2-7 2l-62 0c-3 0-5 0-7-2-2-1-3-3-3-5l5-178c0-1 1-3 3-5 1-1 4-2 6-2l53 0c3 0 5 1 7 2 2 2 3 4 3 5z"/>
<glyph glyph-name="cancel" unicode="&#45;" d="M137 107l-30 30 119 119-119 119 30 30 119-119 119 119 30-30-119-119 119-119-30-30-119 119z"/>
<glyph glyph-name="user" unicode="&#46;" d="M256 192c0 0-171 0-235-149 0 0 107-43 235-43 128 0 235 43 235 43-64 149-235 149-235 149z m0 21c64 0 107 64 107 171 0 107-107 107-107 107 0 0-107 0-107-107 0-107 43-171 107-171z"/>
<glyph glyph-name="bug" unicode="&#58;" d="M485 238c0-5-2-10-6-13-3-4-8-6-13-6l-64 0c0-32-6-60-19-82l60-60c3-4 5-8 5-13 0-5-2-9-5-13-4-3-8-5-13-5-5 0-10 2-13 5l-57 56c-1-1-2-2-4-3-2-2-6-5-12-8-6-4-12-8-19-11-6-3-14-6-23-8-9-3-19-4-28-4l0 256-36 0 0-256c-10 0-20 1-29 4-10 3-18 6-25 9-7 4-13 8-19 12-6 3-10 6-12 9l-5 4-52-59c-4-4-8-6-14-6-4 0-8 1-12 4-4 4-6 8-6 13 0 5 1 9 5 13l57 65c-11 22-16 48-16 78l-64 0c-5 0-10 2-13 6-4 3-6 8-6 13 0 5 2 9 6 13 3 3 8 5 13 5l64 0 0 84-50 49c-3 4-5 8-5 13 0 5 2 10 5 13 4 4 8 6 13 6 5 0 9-2 13-6l49-49 242 0 49 49c4 4 8 6 13 6 5 0 9-2 13-6 3-3 5-8 5-13 0-5-2-9-5-13l-50-49 0-84 64 0c5 0 10-2 13-5 4-4 6-8 6-13z m-138 164l-182 0c0 26 8 47 26 65 18 18 40 27 65 27 25 0 47-9 65-27 18-18 26-39 26-65z"/>
<glyph glyph-name="gen-chat" unicode="&#33;" d="M48 458c-13 0-25-5-34-14-9-9-14-21-14-34l0-226c0-26 21-48 48-48l350 0c12 0 23-4 32-13l80-86 0 372c0 26-21 48-47 48z m106-206l35 0 0-38-35 0z m77 0l35 0 0-38-35 0z m76 0l36 0 0-38-36 0z"/>
<glyph glyph-name="ctd" unicode="&#47;" d="M256 358c-57 0-102-45-102-102 0-31 12-58 34-77 19 17 42 26 68 26 26 0 50-9 68-26 22 19 34 46 34 77 0 57-45 102-102 102z m-64-89c-7 0-13 6-13 13 0 7 6 12 13 12 7 0 13-5 13-12 0-7-6-13-13-13z m26 51c0 7 5 13 12 13 7 0 13-6 13-13 0-7-6-13-13-13-7 0-12 6-12 13z m76-3l0-1-17-41-1-3c6-7 7-17 4-26-5-13-20-19-33-14-14 5-20 20-15 33 4 9 11 15 20 17l2 3 16 41c2 5 7 8 12 8 2 0 3 0 5-1 6-2 10-10 7-16z m39-35c0-7-6-13-13-13-7 0-13 6-13 13 0 7 6 12 13 12 7 0 13-5 13-12z m165 7l-209 209c-18 19-48 19-66 0l-209-209c-19-18-19-48 0-66l209-209c18-19 48-19 66 0l209 209c19 18 19 48 0 66z m-242-161c-71 0-128 57-128 128 0 71 57 128 128 128 71 0 128-57 128-128 0-71-57-128-128-128z"/>
<glyph glyph-name="ctd-icon" unicode="&#59;" d="M256 512c-141 0-256-115-256-256 0-141 115-256 256-256 141 0 256 115 256 256 0 141-115 256-256 256m0-51c113 0 205-92 205-205 0-61-26-115-69-154-36 34-85 52-136 52-51 0-97-18-136-52-43 39-69 93-69 154 0 113 92 205 205 205m51-49c-10 0-19-6-23-16l-33-83-2-6c-19-3-34-15-41-32-10-26 3-56 29-67 26-10 56 3 67 29 6 17 3 36-8 51l3 6 33 83 0 0c5 13-1 28-14 34-4 1-7 1-11 1m-102-2c-14 0-26-12-26-26 0-14 12-26 26-26 14 0 25 12 25 26 0 14-11 26-25 26m-77-77c-14 0-26-12-26-26 0-14 12-25 26-25 14 0 26 11 26 25 0 14-12 26-26 26m256 0c-14 0-26-12-26-26 0-14 12-25 26-25 14 0 26 11 26 25 0 14-12 26-26 26z"/>
<glyph glyph-name="sse" unicode="&#60;" d="M498 289l-209 209c-18 19-48 19-66 0l-209-209c-19-18-19-48 0-66l209-209c18-19 48-19 66 0l209 209c19 18 19 48 0 66z m-307-72l26 0 0-26-26 0c-29 0-53 23-53 52 0 29 24 52 53 52l19 0c11 0 20 9 20 20 0 11-9 19-20 19l-46 0c-7 0-13 6-13 14 0 7 6 13 13 13l46 0c25 0 46-21 46-46 0-25-21-46-46-46l-19 0c-15 0-27-12-27-26 0-14 12-26 27-26z m130-53c0-7-5-13-13-13l-26 0c-14 0-26 12-26 27l-13 0c-7 0-13 5-13 13l0 26c0 7 6 13 13 13l13 0c0 14 12 26 26 26l26 0c8 0 13-6 13-13z m40 0l-26 0 0 27 26 0c7 0 13-6 13-13 0-8-6-14-13-14z m0 53l-26 0 0 26 26 0c7 0 13-6 13-13 0-7-6-13-13-13z"/>
<glyph glyph-name="see-icon" unicode="&#61;" d="M512 199c0 16-13 29-28 29l-57 0 0-57 57 0c15 0 28 12 28 28z m-28-85l-57 0 0-57 57 0c15 0 28 13 28 28 0 16-13 29-28 29z m-114 142l-57 0c-31 0-57-26-57-57l-28 0c-16 0-29-13-29-28l0-57c0-16 13-29 29-29l28 0c0-31 26-57 57-57l57 0c15 0 28 13 28 29l0 171c0 15-13 28-28 28z m-313-28c0 31 25 56 57 56l42 0c55 0 100 45 100 100 0 55-45 100-100 100l-99 0c-16 0-29-13-29-29 0-16 13-28 29-28l99 0c24 0 43-19 43-43 0-24-19-43-43-43l-42 0c-63 0-114-51-114-113 0-63 51-114 114-114l57 0 0 57-57 0c-32 0-57 25-57 57z"/>
<glyph glyph-name="smt" unicode="&#62;" d="M498 289l-209 209c-18 19-48 19-66 0l-209-209c-19-18-19-48 0-66l209-209c18-19 48-19 66 0l209 209c19 18 19 48 0 66z m-129-123l-58 0 0 52c0 31-25 56-56 56-30 0-55-25-55-56l0-52-57 0 0 180 226 0 0-180z"/>
<glyph glyph-name="smt-icon" unicode="&#63;" d="M0 461l0-410 128 0 0 118c0 70 56 127 127 127 70 0 127-57 127-127l0-118 130 0 0 410z"/>
<glyph glyph-name="sps" unicode="&#64;" d="M187 164l46 0 0 46 46 0 0-46 46 0 0 184-138 0z m81 161l34 0 0-34-34 0z m0-57l34 0 0-35-34 0z m-58 57l34 0 0-34-34 0z m0-57l34 0 0-35-34 0z m288 21l-209 209c-18 19-48 19-66 0l-209-209c-19-18-19-48 0-66l209-209c18-19 48-19 66 0l209 209c19 18 19 48 0 66z m-150-148l-184 0 0 207c0 13 10 23 23 23l138 0c13 0 23-10 23-23z"/>
<glyph glyph-name="sps-icon" unicode="&#91;" d="M102 512l308 0c28 0 51-23 51-51l0-461-410 0 0 461c0 28 23 51 51 51z m0-461l103 0 0 103 102 0 0-103 103 0 0 410-308 0z m180 359l76 0 0-77-76 0z m-128-128l76 0 0-77-76 0z m128 0l76 0 0-77-76 0z m-128 128l76 0 0-77-76 0z"/>
<glyph glyph-name="sszt" unicode="&#93;" d="M498 289l-209 209c-18 19-48 19-66 0l-209-209c-19-18-19-48 0-66l209-209c18-19 48-19 66 0l209 209c19 18 19 48 0 66z m-243-117l-71 42-56 0c-16 0-28 12-28 28l0 28c0 16 12 28 28 28l56 0 71 42z m87 197c6-8 11-15 17-23-14-10-32-24-45-34-6 8-11 15-17 23 13 10 31 23 45 34z m-73-160l0 94c13-11 21-28 21-47 0-19-8-36-21-47z m73-66c-14 11-32 24-45 34 6 7 11 15 17 23 13-10 31-24 45-34-6-8-11-15-17-23z m39 99l-56 0 0 28 56 0z"/>
<glyph glyph-name="sszt-icon" unicode="&#94;" d="M410 282l0-52 102 0 0 52z m-52-170c25-18 57-42 82-61 11 14 21 28 31 41-25 19-57 43-82 62-10-14-20-28-31-42z m113 308c-10 13-20 27-31 41-25-19-57-43-82-62 11-13 21-27 31-41 25 19 57 43 82 62z m-420-87c-28 0-51-23-51-51l0-52c0-28 23-51 51-51l103 0 128-77 0 308-128-77z m295-77c0 34-15 65-39 86l0-172c24 21 39 52 39 86z"/>
<glyph glyph-name="st" unicode="&#95;" d="M318 261l-3 17-118 0-3-17z m-8 47l-4 18-100 0-4-18z m-26-80l-96 0-3-18 142 0-3 18z m214 61l-209 209c-18 19-48 19-66 0l-209-209c-19-18-19-48 0-66l209-209c18-19 48-19 66 0l209 209c19 18 19 48 0 66z m-137-146l-21 0-6 30-156 0-6-30-21 0 7 30-38 0 9 37 37 0 3 18-36 0 8 33 35 0 4 17-35 0 7 30 34 0 4 18-34 0 8 28 32 0 3 15 15 0-3-15 90 0-3 15 15 0 3-15 32 0 7-28-33 0 4-18 34 0 7-30-35 0 3-17 36 0 8-33-37 0 4-18 37 0 9-37-38 0 6-30z"/>
<glyph glyph-name="st-icon" unicode="&#96;" d="M149 470l-6-29-61 0-14-52 64 0-7-35-65 0-13-56 66 0-7-32-67 0-14-63 68 0-7-34-69 0-17-70 71 0-12-57 39 0 10 57 296 0 10-57 39 0-12 57 71 0-17 70-69 0-7 34 68 0-14 63-67 0-7 32 66 0-13 56-65 0-7 35 64 0-14 52-61 0-6 29-27 0 5-29-170 0 5 29z m12-81l190 0 6-35-202 0z m-16-91l222 0 6-32-234 0z m-18-95l258 0 6-34-270 0 6 34z"/>
<glyph glyph-name="szt" unicode="&#123;" d="M229 288l54 0 0-27-54 0z m0-54l54 0 0-27-54 0z m269 55l-209 209c-18 19-48 19-66 0l-209-209c-19-18-19-48 0-66l209-209c18-19 48-19 66 0l209 209c19 18 19 48 0 66z m-134-1l-29 0c1-4 2-9 2-13l0-14 27 0 0-27-27 0 0-13c0-5-1-9-2-14l29 0 0-26-38 0c-14-24-40-41-70-41-30 0-56 17-70 41l-38 0 0 26 29 0c-1 5-2 9-2 14l0 13-27 0 0 27 27 0 0 14c0 4 1 9 2 13l-29 0 0 27 38 0c6 10 15 19 25 26l-22 22 19 19 29-29c6 1 12 2 19 2 7 0 13-1 19-2l29 29 19-19-22-22c10-7 19-16 25-26l38 0 0-27z"/>
<glyph glyph-name="szt-icon" unicode="&#124;" d="M313 256l-114 0 0 57 114 0m0-171l-114 0 0 57 114 0m171 171l-80 0c-13 22-31 41-52 56l46 46-40 40-62-62c-13 3-26 5-40 5-14 0-27-2-40-5l-62 62-40-40 46-46c-21-15-39-34-52-56l-80 0 0-57 60 0c-2-9-3-19-3-29l0-28-57 0 0-57 57 0 0-28c0-10 1-19 3-29l-60 0 0-57 80 0c30-51 85-85 148-85 63 0 118 34 148 85l80 0 0 57-60 0c2 9 3 19 3 29l0 28 57 0 0 57-57 0 0 28c0 10-1 19-3 29l60 0z"/>
<glyph glyph-name="infra" unicode="&#125;" d="M498 289l-209 209c-18 19-48 19-66 0l-209-209c-19-18-19-48 0-66l209-209c18-19 48-19 66 0l209 209c19 18 19 48 0 66z m-275 91l66 0c3 0 5-2 5-5l-10-143c0-3-2-5-5-5l-46 0c-3 0-5 2-5 5l-10 143c0 3 2 5 5 5z m33-248c-23 0-41 18-41 41 0 22 18 41 41 41 23 0 41-19 41-41 0-23-18-41-41-41z"/>
<glyph glyph-name="history" unicode="&#126;" d="M475 256c0-30-5-58-17-85-12-27-27-51-47-70-19-20-43-35-70-47-27-12-55-17-85-17-33 0-64 6-93 20-30 14-55 34-76 59-1 2-2 4-2 6 0 3 1 4 3 6l39 39c2 2 4 3 7 3 3 0 5-2 7-3 13-19 31-33 51-42 20-10 41-15 64-15 20 0 39 4 57 11 18 8 33 18 46 32 14 13 24 28 32 46 7 18 11 37 11 57 0 20-4 39-11 57-8 18-18 33-32 46-13 14-28 24-46 32-18 7-37 11-57 11-19 0-37-3-54-10-17-7-32-16-45-29l39-39c6-6 7-13 4-20-4-8-9-11-17-11l-128 0c-5 0-9 1-13 5-4 4-5 8-5 13l0 128c0 8 3 13 11 17 7 3 14 2 20-4l37-37c20 19 44 34 70 45 26 10 53 15 81 15 30 0 58-5 85-17 27-12 51-27 70-47 20-19 35-43 47-70 12-27 17-55 17-85z m-182 82l0-128c0-2-1-5-3-6-2-2-4-3-7-3l-91 0c-3 0-5 1-7 3-1 1-2 4-2 6l0 19c0 2 1 4 2 6 2 2 4 3 7 3l64 0 0 100c0 3 1 5 3 7 1 2 3 2 6 2l18 0c3 0 5 0 7-2 2-2 3-4 3-7z"/>
</font>
</defs>
</svg>
